Всегда рабочее зеркало без VPN и Proxy просто перед .vidak.icu напиши любое слово или цифру, Пример http://br1i.vidak.icu

MVO

Лицензия

1 сезон

1

1 сезон

iTunes

1 сезон

13

1 сезон

Deluxe

pack

Рекомендуем

Пиратка

30

ВАЖНО

RePack

MK11

RePack

jed

RePack

fifa19

RePack

RDR2

RePack

NEED FOR SPEED™ PAYBACK

Кинопоиск HD

6 сезон

 Острые козырьки 6 сезон

Все сериалы

все сериалы на PB.wtf

RePack

FAR CRY 5

Anonymous, нам критически не хватает 2100 руб. на оплату серверов и переферии за МАЙ, помоги нам пожалуйста, вся надежда только на тебя. В благодарность мы отключим тебе всю рекламу на сайте!

×
  
Magnet ссылка

Домашнее поле / Сезон: 1 / Серии: 1-6 из 8 (Феликс Умаров) [2022, Драма, спорт, WEBRip-AVC] 110.vidak.icu

Домашнее поле через торрент 110.vidak.icu

Раздают: 7 [ 12 KB/s ] Качают: 2 [ 0 KB/s ]
Размер: 2.87 GB | Добавлен: 2 д. 20 ч. назад | Торрент скачан:7 раз
Смотреть онлайн Домашнее поле | Скачать    Ребята, помогите собрать деньги на оплату серверов!!!

13-06-2022 08:24 Домашнее поле Скачать торрент  

Домашнее поле
Год выпуска: 2022
Страна: Россия
Студия: Кинокомпания "Hype Film" по заказу «НМГ Студии»
Жанр: Драма, спорт
Продолжительность: ~ 00:38:34
Перевод: Не требуется
Субтитры: отсутствуют

Режиссер: Феликс Умаров



В ролях: Светлана Устинова, Максим Матвеев, Иван Янковский, Игорь Верник, Александра Хромова, Богдан Голощук, Фёдор Леонов, Влада Ерофеева, Егор Корнев, Артём Манукян, Мария Кукушкина (II)

Описание: Провинциальный футбольный клуб «Красный ястреб» остался без тренера перед стартом сезона в Российской Премьер-Лиге. Его генеральный директор Антон Данин находит неожиданное решение: он в обход спонсоров назначает на эту должность Елену Волкову — талантливую москвичку, выведшую свою команду «Сайгак» в Лигу чемпионов. Теперь она первая женщина-тренер в мужском спорте. Но в городе Елену ждет холодный прием. Потому что здесь футбол — исключительно мужской мир. На новом месте Елена постоянно сталкивается с препятствиями, и только Данин защищает героиню перед спонсором команды Титовым, который хочет убрать неудобного тренера и заменить ее надежным ветераном Филом Никитиным.

Качество: WEBRip-AVC
Формат: MKV

Видео: MPEG-4 AVC, ~ 1600 Кбит/с, 1024x576, 25 кадр/с
Аудио: 48.0 kHz, AC3 Dolby Digital, 2/0 (L,R) ch, ~ 192 kbps

General
Unique ID : 221751600894143547176230405986654555289 (0xA6D3CE09D9582DC687D2C7EF104B0C99)
Complete name : F:\Домашнее поле.(2022).WEBRip.(AVC).Files-x\01.Домашнее поле.(2022).WEBRip.(AVC).by.Серый1779.Files-x.mkv
Format : Matroska
Format version : Version 2
File size : 494 MiB
Duration : 38 min 34 s
Overall bit rate : 1 792 kb/s
Encoded date : UTC 2022-05-26 23:12:01
Writing application : mkvmerge v7.8.0 ('River Man') 32bit built on Apr 3 2015 12:11:22
Writing library : libebml v1.3.1 + libmatroska v1.4.2

Video
ID : 1
Format : AVC
Format/Info : Advanced Video Codec
Format profile : [email protected]
Format settings : CABAC / 9 Ref Frames
Format settings, CABAC : Yes
Format settings, RefFrames : 9 frames
Codec ID : V_MPEG4/ISO/AVC
Duration : 38 min 34 s
Bit rate : 1 600 kb/s
Width : 1 024 pixels
Height : 576 pixels
Display aspect ratio : 16:9
Frame rate mode : Constant
Frame rate : 25.000 FPS
Color space : YUV
Chroma subsampling : 4:2:0
Bit depth : 8 bits
Scan type : Progressive
Bits/(Pixel*Frame) : 0.109
Stream size : 432 MiB (87%)
Writing library : x264 core 146 r2538 121396c
Encoding settings : cabac=1 / ref=9 / deblock=1:-2:-1 / analyse=0x3:0x133 / me=umh / subme=9 / psy=1 / psy_rd=1.00:0.15 / mixed_ref=1 / me_range=32 / chroma_me=1 / trellis=2 / 8x8dct=1 / cqm=0 / deadzone=21,11 / fast_pskip=0 / chroma_qp_offset=-3 / threads=18 / lookahead_threads=3 / sliced_threads=0 / nr=0 / decimate=1 / interlaced=0 / bluray_compat=0 / constrained_intra=0 / bframes=9 / b_pyramid=2 / b_adapt=2 / b_bias=0 / direct=1 / weightb=1 / open_gop=0 / weightp=2 / keyint=250 / keyint_min=25 / scenecut=40 / intra_refresh=0 / rc=2pass / mbtree=0 / bitrate=1600 / ratetol=1.0 / qcomp=0.60 / qpmin=0 / qpmax=69 / qpstep=4 / cplxblur=20.0 / qblur=0.5 / ip_ratio=1.40 / pb_ratio=1.30 / aq=2:1.00
Default : Yes
Forced : No
Color range : Limited
Color primaries : BT.709
Transfer characteristics : BT.709
Matrix coefficients : BT.709

Audio
ID : 2
Format : AC-3
Format/Info : Audio Coding 3
Format settings, Endianness : Big
Codec ID : A_AC3
Duration : 38 min 34 s
Bit rate mode : Constant
Bit rate : 192 kb/s
Channel(s) : 2 channels
Channel positions : Front: L R
Sampling rate : 48.0 kHz
Frame rate : 31.250 FPS (1536 SPF)
Bit depth : 16 bits
Compression mode : Lossy
Stream size : 53.0 MiB (11%)
Service kind : Complete Main
Default : Yes
Forced : No

Внимание! Раздача ведётся путём добавления новых серий; при каждом добавлении создаётся новый торрент. Чтобы начать докачку новой серии, пользователям необходимо сделать следующее: (1) остановить скачивание, (2) удалить старый торрент у себя из клиента (старые серии удалять не надо), (3) скачать новый торрент и запустить его у себя в клиенте вместо старого, при этом указать клиенту путь в старую папку куда и должно происходить скачивание новых серий.

Ваш клиент при этом должен произвести хеширование (проверку) старой папки (если не производит сам - помогите ему сделать это), и будет докачивать только те серии которых у вас ещё нет. Старые серии при этом не удаляются, а продолжают раздаваться!

Eсли вы уже удалили старые серии, то предотвратить повторную закачку старых серий можно, отжав галочку в соответствующих местах при запуске нового торрента.
110.vidak.icu



Скачать Домашнее поле через торрент https://i120.fastpic.org/big/2022/0525/48/7be6cdacfc117aa44ae516c56701b448.jpg Скачать, смотреть онлайн Домашнее поле бесплантно в хорошем качестве Описание: Провинциальный футбольный клуб «Красный ястреб» остался без тренера перед стартом сезона в Российской Премьер-Лиге. Его ... 7.8 10 4
Торрент: Зарегистрирован [2022-06-23 11:31] · скачан: 7 раз
Статус: √ проверено
Размер: 2.87 GB
Как cкачать? Как скачать Домашнее поле через торрент | UTorrent

28-11-2019 20:33  

Отключить всю рекламу на сайте

    Дорогой пользователь! Огромная просьба, поблагодарите релизера, оцените раздачу и оставьте свои комментарий, если Вы скачали Домашнее поле через торрент бесплатно!
    Комментировать посты могут только пользователи прошедшие не сложную регистрацию
    Показать сообщения:    

    Домашнее поле через торрент
    Скачать бесплатно Домашнее поле
    Домашнее поле скачать торрент
    Домашнее поле смотреть онлайн
    Cкачать фильм Домашнее поле бесплатно
    Домашнее поле скачать торрент в хорошем качестве
    Домашнее поле смотреть онлайн бесплатно в хорошем качестве


    Вы не можете начинать темы
    Вы не можете отвечать на сообщения
    Вы не можете редактировать свои сообщения
    Вы не можете удалять свои сообщения
    Вы не можете голосовать в опросах
    Вы не можете прикреплять файлы к сообщениям
    Вы можете скачивать файлы