Всегда рабочее зеркало без VPN и Proxy просто перед .vidak.icu напиши любое слово или цифру, Пример http://z4pz.vidak.icu

MVO

Лицензия

1 сезон

1

1 сезон

iTunes

1 сезон

13

1 сезон

Deluxe

pack

Рекомендуем

Пиратка

30

ВАЖНО

RePack

MK11

RePack

jed

RePack

fifa19

RePack

RDR2

RePack

NEED FOR SPEED™ PAYBACK

Кинопоиск HD

6 сезон

 Острые козырьки 6 сезон

Все сериалы

все сериалы на PB.wtf

RePack

FAR CRY 5

Anonymous, нам критически не хватает 2100 руб. на оплату серверов и переферии за МАЙ, помоги нам пожалуйста, вся надежда только на тебя. В благодарность мы отключим тебе всю рекламу на сайте!

×
  
Magnet ссылка

Преступления будущего / Crimes of the Future (Дэвид Кроненберг) [2022, Ужасы, фантастика, драма, WEB-DL 1080p] MVO [Jaskier] 110.vidak.icu

Преступления будущего через торрент 110.vidak.icu

Раздают: 60 [ 7 MB/s ] Качают: 4 [ 0 KB/s ]
Размер: 4.58 GB | Добавлен: 2 д. 20 ч. назад | Торрент скачан:254 раза
Смотреть онлайн Преступления будущего | Скачать    Ребята, помогите собрать деньги на оплату серверов!!!

23-06-2022 11:55 Преступления будущего Скачать торрент  

Преступления будущего
Crimes of the Future

Год выпуска: 2022
Страна: Канада, Франция, Греция, Великобритания
Студия: Argonauts, Bell MediaCanadian Broadcasting Corporation (CBC)
Жанр: Ужасы, фантастика, драма
Продолжительность: 01:47:34
Перевод: Профессиональный (многоголосый) | Jaskier
Субтитры: Aнглийские

Режиссер: Дэвид Кроненберг

rating

В ролях: Вигго Мортенсен, Леа Сейду, Кристен Стюарт, Дон МакКеллар, Таная Битти, Джейсон Биттер, Велкетт Бунге, Дениз Капецца, Эфи Кантза, Лихи Корновски

Описание: Недалекое будущее. Человечество учится приспосабливаться к новому миру: у людей появился синдром ускоренной эволюции, из-за которого с телом начинают происходить удивительные изменения. Одни принимают новую реальность, а другие пытаются бороться любыми возможными способами.

Качество: WEB-DL 1080p
Формат: MKV

Видео: MPEG-4 AVC, 1920x1040, 5011 Kbit/s, 23.976 fps
Аудио #01: 48 kHz, AC3, 5.1, 448 Kbps | Профессиональный многоголосый | Jaskier | RUS |
Аудио #02: 48 kHz, E-AC3, 5.1, 640 Kbps | Оригинал | ENG |
скриншот  скриншот  скриншот  скриншот  скриншот  

General
Unique ID : 128189504822839879076840865773822501453 (0x6070668D07B1FC8E66DEC8A00889624D)
Complete name : D:Video1Crimes.of.the.Future.2022.AMZN.WEB-DL.1080p.seleZen.mkv
Format : Matroska
Format version : Version 4
File size : 4.58 GiB
Duration : 1 h 47 min
Overall bit rate : 6 101 kb/s
Movie name : Crimes of the Future 2022 from seleZen
Encoded date : UTC 2022-06-23 11:37:40
Writing application : mkvmerge v59.0.0 ('Shining Star') 64-bit
Writing library : libebml v1.4.2 + libmatroska v1.6.4

Video
ID : 1
Format : AVC
Format/Info : Advanced Video Codec
Format profile : [email protected]
Format settings : CABAC / 4 Ref Frames
Format settings, CABAC : Yes
Format settings, Reference : 4 frames
Codec ID : V_MPEG4/ISO/AVC
Duration : 1 h 47 min
Bit rate mode : Constant
Bit rate : 5 011 kb/s
Nominal bit rate : 10 000 kb/s
Width : 1 920 pixels
Height : 1 040 pixels
Display aspect ratio : 1.85:1
Frame rate mode : Constant
Frame rate : 23.976 (24000/1001) FPS
Color space : YUV
Chroma subsampling : 4:2:0
Bit depth : 8 bits
Scan type : Progressive
Bits/(Pixel*Frame) : 0.105
Stream size : 3.77 GiB (82%)
Language : English
Default : No
Forced : No
Color range : Limited
Color primaries : BT.709
Transfer characteristics : BT.709
Matrix coefficients : BT.709

Audio #1
ID : 2
Format : AC-3
Format/Info : Audio Coding 3
Commercial name : Dolby Digital
Codec ID : A_AC3
Duration : 1 h 47 min
Bit rate mode : Constant
Bit rate : 448 kb/s
Channel(s) : 6 channels
Channel layout : L R C LFE Ls Rs
Sampling rate : 48.0 kHz
Frame rate : 31.250 FPS (1536 SPF)
Compression mode : Lossy
Stream size : 345 MiB (7%)
Title : MVO [Jaskier]
Language : Russian
Service kind : Complete Main
Default : Yes
Forced : Yes

Audio #2
ID : 3
Format : E-AC-3
Format/Info : Enhanced AC-3
Commercial name : Dolby Digital Plus
Codec ID : A_EAC3
Duration : 1 h 47 min
Bit rate mode : Constant
Bit rate : 640 kb/s
Channel(s) : 6 channels
Channel layout : L R C LFE Ls Rs
Sampling rate : 48.0 kHz
Frame rate : 31.250 FPS (1536 SPF)
Compression mode : Lossy
Stream size : 492 MiB (10%)
Title : Original
Language : English
Service kind : Complete Main
Default : No
Forced : No

Text #1
ID : 4
Format : UTF-8
Codec ID : S_TEXT/UTF8
Codec ID/Info : UTF-8 Plain Text
Duration : 1 h 37 min
Bit rate : 49 b/s
Count of elements : 1420
Stream size : 35.1 KiB (0%)
Title : Full
Language : English
Default : No
Forced : No

Text #2
ID : 5
Format : UTF-8
Codec ID : S_TEXT/UTF8
Codec ID/Info : UTF-8 Plain Text
Duration : 1 h 41 min
Bit rate : 56 b/s
Count of elements : 1824
Stream size : 42.0 KiB (0%)
Title : SDH
Language : English
Default : No
Forced : No

110.vidak.icu



Скачать Преступления будущего через торрент https://i120.fastpic.org/big/2022/0623/59/d1afd20443d61826c6025b1adea4d459.jpg Скачать, смотреть онлайн Преступления будущего бесплантно в хорошем качестве Описание: Недалекое будущее. Человечество учится приспосабливаться к новому миру: у людей появился синдром ускоренной эволюции, из-за ... 9 10 9
Торрент: Зарегистрирован [2022-06-23 11:55] · скачан: 254 раз
Статус: √ проверено
Размер: 4.58 GB
Как cкачать? Как скачать Преступления будущего через торрент | UTorrent

% Раздел Тема Автор DL S | L
Ultra HD (UHD: 2K, 4K, 8K) — видео сверхвысокой чёткости [ 11.53 GB ] Преступления будущего / Crimes of the Future [2022 UHD WEB-DL 2160p] MVO [Jaskier] bober100 Скачать
25 | 3

28-11-2019 20:33  

Отключить всю рекламу на сайте

24-06-2022 03:33 Преступления будущего Скачать торрент  

мало отзывов. но и те кто посмотрел не в восторге110.vidak.icu



26-06-2022 02:47 Преступления будущего Скачать торрент  

полный шлак, самый адекватный поступок- это в начале фильма.110.vidak.icu



    Дорогой пользователь! Огромная просьба, поблагодарите релизера, оцените раздачу и оставьте свои комментарий, если Вы скачали Преступления будущего через торрент бесплатно!
    Комментировать посты могут только пользователи прошедшие не сложную регистрацию
    Показать сообщения:    

    Преступления будущего через торрент
    Скачать бесплатно Преступления будущего
    Преступления будущего скачать торрент
    Преступления будущего смотреть онлайн
    Cкачать фильм Преступления будущего бесплатно
    Преступления будущего скачать торрент в хорошем качестве
    Преступления будущего смотреть онлайн бесплатно в хорошем качестве


    Вы не можете начинать темы
    Вы не можете отвечать на сообщения
    Вы не можете редактировать свои сообщения
    Вы не можете удалять свои сообщения
    Вы не можете голосовать в опросах
    Вы не можете прикреплять файлы к сообщениям
    Вы можете скачивать файлы